extratorrent - A Fan Made Alternative Login   |   Register
Important Information
Registrations are open now
-------------------------------------

Please click here to register with Extratorrent2 to recieve latest updates, add bookmarks and to post comments.

Friends
Friends

1) Filebebo
-------------------------------------
2) MoviesDig
-------------------------------------
3) Torrentz2.cc
-------------------------------------
4) Torrents.me

Extratorrent2 > Categories > Movies > 12.Strong.2018.720p.WEBRip.x264.AAC.LLG torrent


Browse Movies torrents

12.Strong.2018.720p.WEBRip.x264.AAC.LLG torrent


Download torrent: Download 12.Strong.2018.720p.WEBRip.x264.AAC.LLG torrent Magnet link Bookmark Torrent: 12.Strong.2018.720p.WEBRip.x264.AAC.LLG   12.Strong.2018.720p.WEBRip.x264.AAC.LLG torrent
Info hash: 5865E47193ABA3F00269F7C1BF07B5573D4FCBAF
Category: Categories > Movies
Trackers:
View all torrent trackers >
Health:
 seeds: 9 ,  leechers: 11 |  Update >
Torrent language: English English
Total Size: 937.3 MB
Files List:
2    View torrent files >
Uploader:
LifeLongg
Torrent added: April 17, 2018, 4:31 am
Tags: Action, Drama, History
Users rating: ---, not rated. please login to rate.

Download 12.Strong.2018.720p.WEBRip.x264.AAC.LLG torrent



Torrent Description





******************************Thumbnail:**********************



******************************Screenshots:********************

Screenshot 1

Screenshot 2

Screenshot 3

Screenshot 4

Screenshot 5

Screenshot 6

Screenshot 7

Screenshot 8

Screenshot 9

Screenshot 0

**************************************************************

Complete name : 12.Strong.2018.720p.WEBRip.x264.AAC.LLG.mp4
Format : MPEG-4
Format profile : Base Media
Codec ID : isom (isom/iso2/avc1/mp41)
File size : 930 MiB
Duration : 2 h 9 min
Overall bit rate : 1 001 kb/s
Writing application : Lavf57.56.101

Video
ID : 1
Format : AVC
Format/Info : Advanced Video Codec
Format profile :
Format settings : CABAC / 4 Ref Frames
Format settings, CABAC : Yes
Format settings, RefFrames : 4 frames
Codec ID : avc1
Codec ID/Info : Advanced Video Coding
Duration : 2 h 9 min
Bit rate : 900 kb/s
Width : 1 280 pixels
Height : 534 pixels
Display aspect ratio : 2.40:1
Original display aspect ratio : 2.40:1
Frame rate mode : Constant
Frame rate : 23.976 (23976/1000) FPS
Color space : YUV
Chroma subsampling : 4:2:0
Bit depth : 8 bits
Scan type : Progressive
Bits/(Pixel*Frame) : 0.055
Stream size : 804 MiB (87%)

Audio
ID : 2
Format : AAC
Format/Info : Advanced Audio Codec
Format profile : LC
Codec ID : mp4a-40-2
Duration : 2 h 9 min
Duration_LastFrame : -16 ms
Bit rate mode : Constant
Bit rate : 129 kb/s
Channel(s) : 2 channels
Channel positions : Front: L R
Sampling rate : 48.0 kHz
Frame rate : 46.875 FPS (1024 SPF)
Compression mode : Lossy
Stream size : 120 MiB (13%)
Default : Yes
Alternate group : 1


Download 12.Strong.2018.720p.WEBRip.x264.AAC.LLG torrent


Related Torrents


Comments   (please login to add your comment!)

lesbian adventures 12 strap on specialists     amateurs czech     beauties     janice cam     brasserie     pov split scenes     empire records     twilight zone the 1983     cougar in need isis love     jackeline     natasha white     helpless teens     brazzers big tits at     wix     sz1317     bad kittiez     violette opening violette     mom swap     jensen     s old     julia lucia     spartacus 2004     wwe tjet     shame     


Home - Browse Torrents

Made with love by an Extratorrent Fan!